[Login] or [Signup]


Warning! Use a VPN When Downloading Torrents!
Your IP Address is .   Location is
Your Internet Provider is tracking your torrent activity!  Hide your IP ADDRESS with a VPN!
We strongly recommend using ExpressVPN to anonymize your torrenting. 30 Day Money Back Guarantee!
Try it Now!
First Cams

Xvid/x264



Non-English

Site Friends
      ETTV

      WorldWide Torrents

      Free Tutorials

      Aiosearch


Loading...

Criminal (2016) x 1600 (2160p) HDR 5.1 x265 10bit Phun Psyz


Complete Name :Criminal (2016) x 1600 (2160p) HDR 5.1 x265 10bit Phun Psyz
Download torrent:    Criminal (2016) x 1600 (2160p) HDR 5.1 x265 10bit Phun Psyz.torrent
Info Hash:d8a47078e83fc375790ff7c8fb9d356483284c87
Category:Movies  > 4K
Torrent language:English  
Seeds | Leech:312 | 208
Complete: 953
Health:
Total Size:2.30 GB
Added By:      phunpsyz
Date Added:14-03-2019 10:01:pm | Last Edit:  15-03-2019 05:04:pm

 

IMDB
Criminal
Criminal Released 15 Apr 2016

Genre Action, Crime, Drama, Mystery, Sci-Fi, Thriller

Director Ariel Vromen

Writer Douglas Cook, David Weisberg

Actors Kevin Costner, Gary Oldman, Tommy Lee Jones, Ryan Reynolds

Plot In a last-ditch effort to stop a diabolical plot, a dead CIA operative's memories, secrets, and skills are implanted into a death-row inmate in hopes that he will complete the operative's mission.

Link http://www.imdb.com/title/tt3014866

Last Updated 22-03-2019 14:15:36
6.3

Votes 50,566

Main Technical Comments
www.imdb.com/title/tt3014866/

In a last-ditch effort to stop a diabolical plot, a dead CIA operative's memories, secrets, and skills are implanted into a death-row inmate in hopes that he will complete the operative's mission.

Source: FGT 4K HDR Remux







Format                      : Matroska
Format version              : Version 4
File size                   : 2.30 GiB
Duration                    : 1 h 53 min
Overall bit rate            : 2 902 kb/s
Writing application         : HandBrake 1.2.0 2018121700

Video
ID                          : 1
Format                      : HEVC
Format/Info                 : High Efficiency Video Coding
Format profile              : Main [email protected]@High
Codec ID                    : V_MPEGH/ISO/HEVC
Duration                    : 1 h 53 min
Bit rate                    : 2 524 kb/s
Width                       : 3 840 pixels
Height                      : 1 600 pixels
Display aspect ratio        : 2.40:1
Frame rate mode             : Constant
Frame rate                  : 23.976 (24000/1001) FPS
Color space                 : YUV
Chroma subsampling          : 4:2:0
Bit depth                   : 10 bits
Bits/(Pixel*Frame)          : 0.017
Stream size                 : 2.00 GiB (87%)
Writing library             : x265 2.9:[Windows][GCC 7.1.0][64 bit] 10bit
Color primaries             : BT.2020
Transfer characteristics    : PQ
Matrix coefficients         : BT.2020 non-constant

Audio
ID                          : 2
Format                      : AC-3
Format/Info                 : Audio Coding 3
Commercial name             : Dolby Digital
Codec ID                    : A_AC3
Duration                    : 1 h 53 min
Bit rate mode               : Constant
Bit rate                    : 320 kb/s
Channel(s)                  : 6 channels
Channel layout              : L R C LFE Ls Rs
Sampling rate               : 48.0 kHz
Frame rate                  : 31.250 FPS (1536 SPF)
Bit depth                   : 16 bits
Compression mode            : Lossy
Stream size                 : 260 MiB (11%)
Title                       : Surround
Language                    : English

Text
Language                    : English
Language                    : Spanish
Default                     : No
Forced                      : No
........................................................................


Loading...


Trackers:
udp://tracker.opentrackr.org:1337/announce

This Torrent also has backup trackers
URLSeedersLeechersCompleted
http://explodie.org:6969/announce000
http://open.acgtracker.com:1096/announce000

Criminal (2016) x 1600 (2160p) HDR 5.1 x265 10bit Phun Psyz
Files
Criminal (2016) x 1600 (2160p) HDR 5.1 x265 10bit Phun Psyz.mkv --- 2.30 GB


Similar Torrents
Type Name Size Added S L
x264 Criminal.Minds.S14E13.HDTV.x264-KILLERS[ettv]
275.91 MB 2019-01-24 04:08:24 2214 346
x264 Criminal.Minds.S14E15.HDTV.x264-KILLERS[ettv]
289.67 MB 2019-02-07 03:59:18 1870 488
x264 Criminal.Minds.S14E10.HDTV.x264-KILLERS[ettv]
272.68 MB 2018-12-13 03:25:37 1669 317
x264 Criminal.Minds.S14E09.HDTV.x264-KILLERS[ettv]
225.52 MB 2018-12-06 07:53:00 1493 245
x264 Criminal.Minds.S14E02.WEB.x264-TBS[ettv]
683.62 MB 2018-10-11 08:24:26 1453 621
x264 Criminal.Minds.S14E05.HDTV.x264-KILLERS[ettv]
228.43 MB 2018-11-01 02:33:39 1404 145
x264 Criminal.Minds.S14E08.HDTV.x264-KILLERS[ettv]
229.75 MB 2018-11-22 06:42:33 1332 93
x264 Criminal.Minds.S14E14.HDTV.x264-KILLERS[ettv]
218.81 MB 2019-01-31 03:05:11 1300 140
x264 Criminal.Minds.S14E12.HDTV.x264-KILLERS[ettv]
255.59 MB 2019-01-10 03:15:41 1291 260
x264 Criminal.Minds.S13E22.HDTV.x264-SVA[ettv]
201.84 MB 2018-04-19 10:48:44 1285 276

Comments:
No comments still posted
Loading...
Powered by TT | Page Generated In 0.294688 secs.
| RSS Feed | Feed Info